<?xml version="1.0" standalone="no"?>
<!DOCTYPE svg PUBLIC "-//W3C//DTD SVG 1.1//EN" "http://www.w3.org/Graphics/SVG/1.1/DTD/svg11.dtd" >
<svg xmlns="http://www.w3.org/2000/svg">
<metadata>Generated by IcoMoon</metadata>
<defs>
<font id="icomoon" horiz-adv-x="1024">
<font-face units-per-em="1024" ascent="960" descent="-64" />
<missing-glyph horiz-adv-x="1024" />
<glyph unicode="&#x20;" horiz-adv-x="512" d="" />
<glyph unicode="&#xe900;" glyph-name="left-arrow" d="M40.976 427.566h863.683l-216.843-216.883 28.959-28.959 266.28 266.322-266.24 266.239-28.956-28.959 216.801-216.8h-863.683v-40.96z" />
<glyph unicode="&#xe901;" glyph-name="right-arrow" d="M983.026 468.434h-863.684l216.843 216.885-28.959 28.959-266.281-266.323 266.241-266.237 28.956 28.956-216.8 216.801h863.684v40.96z" />
<glyph unicode="&#xe902;" glyph-name="big-arrow" horiz-adv-x="4915" d="M2535.951 395.249c14.996 14.996 14.996 39.306 0 54.304l-244.372 244.376c-14.996 14.996-39.311 14.996-54.308 0s-14.996-39.31 0-54.306l217.221-217.223-217.221-217.221c-14.996-14.996-14.996-39.311 0-54.308s39.311-14.996 54.308 0l244.372 244.378zM51.2 384h2457.6v76.8h-2457.6v-76.8z" />
<glyph unicode="&#xe903;" glyph-name="play" d="M192 832l640-384-640-384z" />
<glyph unicode="&#xe904;" glyph-name="hamburger-menu" d="M128 704h768v-85.333h-768v85.333zM128 490.667h768v-85.333h-768v85.333zM128 277.333h768v-85.333h-768v85.333z" />
<glyph unicode="&#xe905;" glyph-name="chevron-left" horiz-adv-x="1067" d="M691.511 734.17c16.661-16.663 16.661-43.677 0-60.34l-225.83-225.83 225.83-225.83c16.661-16.661 16.661-43.678 0-60.339s-43.678-16.661-60.339 0l-256.001 256c-16.663 16.661-16.663 43.678 0 60.339l256.001 256c16.661 16.662 43.678 16.662 60.339 0z" />
<glyph unicode="&#xe906;" glyph-name="chevron-right" horiz-adv-x="1067" d="M375.171 734.17c-16.663-16.663-16.663-43.677 0-60.34l225.831-225.83-225.831-225.83c-16.663-16.661-16.663-43.678 0-60.339s43.677-16.661 60.34 0l256 256c16.661 16.661 16.661 43.678 0 60.339l-256 256c-16.663 16.662-43.678 16.662-60.34 0z" />
<glyph unicode="&#xe907;" glyph-name="email-icon" d="M722.731 832c57.216 0 112.256-22.613 152.747-63.189 40.533-40.491 63.189-95.104 63.189-152.277v-337.067c0-119.040-96.853-215.467-215.936-215.467h-421.504c-119.083 0-215.893 96.427-215.893 215.467v337.067c0 119.040 96.384 215.467 215.893 215.467h421.504zM790.609 552.946l3.413 3.413c10.197 12.373 10.197 30.293-0.469 42.667-5.931 6.357-14.080 10.24-22.571 11.093-8.96 0.469-17.493-2.56-23.936-8.533l-192.384-153.599c-24.747-20.523-60.203-20.523-85.333 0l-191.999 153.599c-13.269 9.813-31.616 8.533-42.667-2.987-11.52-11.52-12.8-29.867-3.029-42.667l5.589-5.547 194.132-151.465c23.893-18.773 52.864-29.013 83.2-29.013 30.251 0 59.733 10.24 83.584 29.013l192.469 154.025z" />
<glyph unicode="&#xe908;" glyph-name="instagram" d="M512.026 721.062c-74.159 0-83.469-0.324-112.595-1.649-29.071-1.332-48.914-5.934-66.276-12.687-17.96-6.975-33.195-16.305-48.373-31.488-15.189-15.178-24.519-30.413-31.517-48.367-6.77-17.368-11.378-37.217-12.687-66.276-1.303-29.126-1.644-38.44-1.644-112.603 0-74.159 0.33-83.439 1.649-112.567 1.337-29.069 5.939-48.913 12.687-66.274 6.98-17.958 16.31-33.195 31.494-48.375 15.172-15.189 30.407-24.542 48.356-31.514 17.374-6.754 37.222-11.358 66.287-12.689 29.128-1.323 38.429-1.647 112.584-1.647 74.167 0 83.447 0.324 112.572 1.647 29.073 1.331 48.939 5.935 66.313 12.689 17.954 6.972 33.165 16.324 48.337 31.514 15.189 15.181 24.521 30.417 31.518 48.371 6.711 17.365 11.319 37.214 12.685 66.274 1.31 29.129 1.651 38.413 1.651 112.572 0 74.163-0.341 83.469-1.651 112.597-1.365 29.071-5.973 48.913-12.685 66.276-6.997 17.96-16.329 33.195-31.518 48.373-15.189 15.189-30.379 24.519-48.354 31.488-17.408 6.753-37.265 11.355-66.334 12.687-29.129 1.325-38.4 1.649-112.585 1.649h0.085zM487.526 671.854c7.27 0.012 15.386 0 24.499 0 72.909 0 81.549-0.262 110.34-1.57 26.624-1.217 41.075-5.666 50.701-9.404 12.745-4.949 21.828-10.866 31.381-20.423 9.557-9.557 15.475-18.66 20.433-31.403 3.738-9.614 8.192-24.064 9.404-50.688 1.31-28.786 1.596-37.435 1.596-110.31s-0.286-81.523-1.596-110.306c-1.216-26.624-5.666-41.075-9.404-50.692-4.949-12.74-10.876-21.815-20.433-31.369-9.557-9.557-18.633-15.471-31.381-20.42-9.613-3.755-24.077-8.192-50.701-9.412-28.783-1.306-37.431-1.591-110.34-1.591-72.917 0-81.557 0.286-110.344 1.591-26.624 1.229-41.074 5.679-50.705 9.417-12.743 4.949-21.846 10.867-31.403 20.425s-15.474 18.637-20.435 31.386c-3.738 9.613-8.192 24.064-9.404 50.688-1.309 28.787-1.57 37.431-1.57 110.353s0.262 81.523 1.57 110.31c1.217 26.624 5.666 41.074 9.404 50.7 4.949 12.743 10.877 21.846 20.435 31.403s18.66 15.474 31.403 20.435c9.626 3.755 24.081 8.192 50.705 9.415 25.19 1.138 34.952 1.479 85.844 1.536v-0.069zM657.788 626.513c-18.091 0-32.768-14.66-32.768-32.757 0-18.091 14.677-32.768 32.768-32.768s32.768 14.677 32.768 32.768c0 18.091-14.677 32.757-32.768 32.757zM512.026 588.226c-77.444 0-140.232-62.79-140.232-140.23 0-77.444 62.787-140.207 140.232-140.207s140.211 62.763 140.211 140.207c0 77.44-62.767 140.23-140.211 140.23zM512.026 539.017c50.266 0 91.021-40.751 91.021-91.021s-40.755-91.025-91.021-91.025c-50.274 0-91.023 40.755-91.023 91.025s40.749 91.021 91.023 91.021z" />
<glyph unicode="&#xe909;" glyph-name="phone-icon" d="M213.694 503.697c0 26.398 0.318 52.793 0.637 79.311v0c0.162 13.444 0.324 26.919 0.446 40.442 0 145.293 90.953 251.226 216.557 251.226h161.331c125.602 0 216.559-105.934 216.559-251.226 1.079-58.201 1.442-116.4 1.442-175.020s-0.363-117.658-1.442-175.859c0-145.293-90.957-251.23-216.559-251.23h-161.331c-125.604 0-216.557 105.937-216.557 251.648-0.722 54.852-1.444 110.959-1.444 167.902l0.361 62.805zM566.643 122.035v-6.827c0-28.74-24.030-51.2-54.613-51.2-29.854 0-54.613 22.46-54.613 51.2v6.827c0 27.989 24.759 51.2 54.613 51.2 30.583 0 54.613-23.211 54.613-51.2zM299.38 599.759c-0.228-17.236-0.455-34.394-0.455-51.55l-0.258-40.825c0-37.013 0.515-73.485 1.031-109.137 0-94.711 64.967-163.571 154.681-163.571h115.243c89.715 0 154.679 68.86 154.679 163.298 0.777 37.833 1.033 76.207 1.033 114.308 0 38.104-0.256 75.934-1.033 113.765 0 94.441-64.964 163.297-154.679 163.297h-115.243c-89.714 0-154.681-68.857-154.681-163.297-0.087-8.79-0.203-17.549-0.318-26.288z" />
<glyph unicode="&#xe90a;" glyph-name="social-midea" d="M785.067 448.375c0-18.466-1.882-36.911-5.572-54.886-3.601-17.549-8.934-34.778-15.923-51.247-6.822-16.179-15.292-31.77-25.186-46.31-9.745-14.447-20.975-28.002-33.31-40.354-12.361-12.305-25.958-23.501-40.401-33.289-14.588-9.826-30.199-18.283-46.387-25.139-16.495-6.95-33.762-12.275-51.298-15.872-17.997-3.699-36.506-5.589-55.002-5.589-18.509 0-37.013 1.89-54.989 5.589-17.562 3.597-34.828 8.922-51.309 15.872-16.187 6.857-31.816 15.313-46.403 25.139-14.441 9.788-28.041 20.983-40.375 33.289-12.347 12.352-23.575 25.907-33.335 40.354-9.841 14.541-18.321 30.131-25.175 46.31-6.988 16.469-12.334 33.698-15.948 51.247-3.653 17.975-5.52 36.42-5.52 54.886 0 18.479 1.866 36.962 5.521 54.899 3.613 17.549 8.96 34.803 15.948 51.246 6.853 16.19 15.334 31.795 25.175 46.335 9.76 14.46 20.989 27.988 33.335 40.358 12.334 12.303 25.935 23.473 40.375 33.246 14.587 9.867 30.215 18.321 46.403 25.192 16.481 6.965 33.746 12.304 51.308 15.872 17.975 3.674 36.484 5.539 54.989 5.539 18.496 0 37.005-1.865 55.006-5.539 17.532-3.569 34.799-8.908 51.294-15.872 16.188-6.87 31.804-15.325 46.387-25.192 14.443-9.773 28.045-20.943 40.405-33.246 12.335-12.37 23.561-25.898 33.306-40.358 9.894-14.54 18.364-30.146 25.186-46.335 6.989-16.443 12.322-33.697 15.923-51.246 3.691-17.937 5.572-36.42 5.572-54.899zM412.489 659.002c-65.031-30.665-113.567-90.501-128.701-162.614 6.148-0.055 103.326-1.28 215.293 28.429-40.363 71.606-83.485 130.043-86.592 134.185zM518.4 488.956c-120.073-35.895-235.292-33.31-239.425-33.152-0.067-2.505-0.187-4.924-0.187-7.428 0-59.823 22.601-114.359 59.75-155.597-0.080 0.119 63.737 113.173 189.582 153.813 3.042 1.011 6.135 1.916 9.203 2.795-5.854 13.235-12.241 26.496-18.923 39.569zM665.997 623.145c-41.058 36.151-94.967 58.079-154.010 58.079-18.948 0-37.338-2.29-54.95-6.524 3.494-4.687 47.296-62.713 87.177-135.837 87.996 32.94 121.207 83.43 121.783 84.282zM553.216 410.799c-0.521-0.171-1.037-0.32-1.545-0.503-137.592-47.898-182.525-144.427-183.011-145.481 39.59-30.741 89.247-49.289 143.327-49.289 32.294 0 63.057 6.566 91.046 18.453-3.456 20.343-17.003 91.661-49.818 176.819zM642.3 255.258c52.365 35.281 89.553 91.311 99.925 156.211-4.8 1.545-70.042 22.17-145.314 10.116 30.588-83.938 43.017-152.294 45.389-166.327zM562.163 504.162c5.414-11.102 10.654-22.404 15.497-33.766 1.719-4.075 3.401-8.068 5.039-12.062 80.111 10.065 159.036-6.869 162.411-7.561-0.533 55.202-20.309 105.865-53.030 145.529-0.439-0.625-37.841-54.59-129.916-92.14z" />
<glyph unicode="&#xe90b;" glyph-name="twiter" d="M496.666 543.842l1.075-17.715-17.907 2.167c-65.181 8.317-122.124 36.518-170.472 83.882l-23.637 23.501-6.088-17.355c-12.893-38.687-4.656-79.543 22.204-107.023 14.325-15.185 11.102-17.353-13.609-8.316-8.595 2.893-16.116 5.065-16.832 3.977-2.507-2.53 6.089-35.43 12.893-48.448 9.311-18.078 28.292-35.793 49.064-46.276l17.548-8.316-20.771-0.363c-20.055 0-20.772-0.363-18.623-7.957 7.163-23.501 35.455-48.448 66.971-59.294l22.205-7.59-19.34-11.571c-28.651-16.631-62.315-26.031-95.98-26.756-16.116-0.363-29.367-1.809-29.367-2.893 0-3.614 43.692-23.863 69.12-31.817 76.282-23.501 166.891-13.376 234.936 26.756 48.35 28.561 96.695 85.325 119.258 140.284 12.177 29.286 24.354 82.799 24.354 108.467 0 16.632 1.075 18.801 21.129 38.687 11.819 11.57 22.921 24.224 25.071 27.84 3.58 6.869 3.221 6.869-15.044 0.723-30.438-10.847-34.735-9.401-19.695 6.869 11.102 11.57 24.354 32.54 24.354 38.687 0 1.085-5.372-0.723-11.46-3.977-6.447-3.616-20.774-9.039-31.518-12.293l-19.337-6.147-17.549 11.932c-9.673 6.508-23.279 13.739-30.443 15.908-18.266 5.062-46.199 4.339-62.673-1.446-44.766-16.27-73.058-58.211-69.837-104.129z" />
<glyph unicode="&#xe90c;" glyph-name="youtube" d="M725.367 624.010c23.501-6.448 42.005-25.448 48.286-49.577 11.413-43.729 11.413-134.971 11.413-134.971s0-91.238-11.413-134.972c-6.281-24.128-24.785-43.127-48.286-49.579-42.586-11.716-213.367-11.716-213.367-11.716s-170.781 0-213.37 11.716c-23.499 6.451-42.006 25.451-48.286 49.579-11.409 43.733-11.409 134.972-11.409 134.972s0 91.243 11.409 134.971c6.281 24.128 24.787 43.128 48.286 49.577 42.589 11.719 213.37 11.719 213.37 11.719s170.782 0 213.367-11.719zM460.8 516.262v-170.667l136.533 85.333-136.533 85.333z" />
<glyph unicode="&#xe90d;" glyph-name="mailing" horiz-adv-x="1260" d="M163.597 854.975c-32.124 0-58.572-26.225-58.572-59.077v-669.536c0-32.855 26.448-59.077 58.572-59.077h933.114c32.122 0 58.573 26.222 58.573 59.077v669.536c0 32.851-26.451 59.077-58.573 59.077h-933.114zM0 795.898c0 90.406 73.021 164.102 163.597 164.102h933.114c90.577 0 163.596-73.696 163.596-164.102v-669.536c0-90.411-73.019-164.108-163.596-164.108h-933.114c-90.577 0-163.597 73.696-163.597 164.108v669.536zM170.532 784.528c19.098 21.826 52.274 24.038 74.1 4.94l385.523-337.332 385.519 337.332c21.827 19.098 55.005 16.887 74.106-4.94 19.094-21.826 16.88-55.002-4.947-74.1l-420.099-367.59c-19.799-17.324-49.361-17.324-69.159 0l-420.103 367.59c-21.826 19.098-24.038 52.274-4.94 74.1z" />
<glyph unicode="&#xe90e;" glyph-name="world-network" d="M0 448c0 282.758 229.242 512 512 512s512-229.242 512-512c0-282.758-229.242-512-512-512s-512 229.242-512 512zM512 870.957c-233.581 0-422.957-189.376-422.957-422.957s189.376-422.957 422.957-422.957c233.581 0 422.957 189.376 422.957 422.957s-189.376 422.957-422.957 422.957zM955.334 634.133c-36.173-0.227-32.614-67.36-77.69-35.685-16.736 11.736-27.034 28.797-48.045 33.986-18.362 4.531-37.171-0.181-55.302-3.331-20.608-3.58-45.050-5.188-60.685-20.89-15.11-15.112-23.11-35.391-39.194-50.593-31.104-29.455-44.239-61.605-24.102-103.249 19.373-40.036 59.898-61.764 103.616-58.909 42.957 2.877 87.578 27.936 86.342-34.847-0.448-22.204 4.166-37.611 10.944-58.253 6.285-19.034 5.862-37.472 7.302-57.12 2.656-36.704 9.37-77.85 27.482-110.272l33.786 47.942c4.166 5.939 12.883 14.253 14.957 21.254 3.674 12.39-3.558 33.69-4.39 47.578-0.832 13.894-0.429 27.962-2.547 41.85-2.976 19.462-14.419 37.702-15.994 56.938-2.906 35.821 3.603 64.415-23.834 94.368-26.49 28.888-65.318 35.821-102.419 29.953-18.694-2.945-93.952-15.044-63.75 27.937 5.971 8.451 16.403 15.384 23.11 23.427 5.837 7.002 10.906 19.871 17.754 25.331s38.291 11.736 47.302 8.95c9.011-2.787 18.406-15.86 26.221-21.661 14.438-10.941 31.296-18.216 49.126-21.207 30.771-4.531 95.104 13.459 94.605 53.154-0.090 19.032-17.658 45.541-24.595 63.35v0zM599.164 307.507c-12.006 50.842-80.686 67.835-117.718 95.409-21.286 15.86-40.23 40.353-68.184 42.346-12.884 0.929-23.674-1.88-36.446 1.45-11.713 3.036-20.904 9.38-33.382 7.726-23.314-3.082-38.023-28.14-63.071-24.742-23.764 3.217-48.249 31.176-53.655 53.947-6.938 29.274 16.083 38.767 40.748 41.372 10.294 1.087 21.85 2.266 31.738-1.518 13.020-4.871 19.169-17.695 30.86-24.175 21.917-12.076 26.355 7.228 22.998 26.804-5.023 29.318-10.879 41.281 15.115 61.446 18.020 13.912 33.428 23.971 30.544 48.963-1.711 14.682-9.708 21.32-2.252 35.934 5.654 11.125 21.174 21.162 31.288 27.801 26.107 17.129 111.838 15.86 76.812 63.803-10.294 14.070-29.283 39.22-47.304 42.664-22.525 4.282-32.526-21.004-48.227-32.151-16.218-11.532-47.798-24.628-64.040-6.797-21.85 23.994 14.484 31.878 22.525 48.622s-18.628 48.396-32.909 56.417l-67.148-75.743c-1.929-12.685-1.258-25.633 1.973-38.047s8.952-24.032 16.813-34.139c13.358-17.288 34.622-22.839 35.59-46.447 0.946-22.657-2.568-34.258-17.3-50.186-6.374-6.797-10.879-16.449-17.367-22.816-7.951-7.772-5-5.392-17.412-7.522-23.336-3.965-43.204-10.083-65.752-16.336-37.572-10.445-41.041 51.296-58.16 75.517l-56.314-45.745c-0.608-7.5 9.235-21.298 11.916-29.454 15.384-46.606 46.424-82.654 66.472-127.244 21.106-47.218 77.78-34.122 102.806-75.494 22.21-36.705-1.51-83.178 15.114-121.603 12.074-27.891 40.546-33.984 60.188-54.374 20.070-20.595 19.642-48.781 22.706-75.584 3.455-31.526 9.062-62.778 16.781-93.53 2.725-10.63 5.226-24.678 12.456-33.446 4.956-6.022 21.962-11.213 15.092-13.21 9.596-1.581 26.692-10.598 34.689-3.987 10.542 8.704 7.726 35.482 9.551 47.584 5.474 36.026 23.404 71.258 47.596 98.221 23.9 26.598 56.651 44.608 76.834 74.765 19.665 29.408 25.588 69.082 17.435 103.501v0zM523.951 247.872c-13.515-24.269-43.609-40.512-62.958-59.795-5.249-5.229-16.421-23.36-22.998-19.437-4.708 2.81-6.307 26.33-8.042 31.718-8.948 27.155-26.030 50.861-48.902 67.859-7.050 5.37-24.53 12.352-28.562 19.712-4.506 8-0.451 26.874-0.293 35.572 0.248 12.688-5.496 33.782-2.388 45.315 3.604 13.3-3.334 5.279 8.492 7.907 6.239 1.405 32.008-3.149 39.78-4.781 12.344-2.582 19.146-10.309 28.877-18.125 25.589-20.641 53.768-36.614 82.443-52.429 22.21-12.371 28.742-28.026 14.551-53.517zM367.174 872.148c10.677-10.49 20.723-22.906 36.649-23.949 15.069-1.020 29.283 7.183 42.438-3.126 14.596-11.329 25.116-25.671 44.488-29.205 18.741-3.421 38.586 7.59 43.226 26.871 4.505 18.375-5.204 38.359-5.789 56.802 0 2.56 1.374 13.934-0.383 15.86-1.306 1.45-12.209-0.181-13.876-0.227-12.209-0.363-24.387-1.208-36.536-2.538-44.289-4.822-87.663-16-128.8-33.193 5.473-3.807 12.344-5.325 18.583-7.296v0zM754.477 744.86c19.123 0 38.541 8.61 32.365 30.859-5.178 18.647-14.010 38.88-35.494 28.82-13.677-6.39-33.050-22.657-34.65-38.79-1.824-18.307 25.030-20.89 37.779-20.89zM739.206 647.501c19.526-11.759 48.493-6.23 63.226 10.559 11.514 13.141 18.291 35.957 38.989 35.934 9.114 0.019 17.869-3.57 24.378-9.992 8.557-8.904 6.867-17.265 8.691-28.412 4.077-25.036 30.771-1.427 37.728 8.27 4.506 6.321 10.611 15.701 8.563 23.926-1.894 7.681-10.81 15.86-14.778 22.907-11.578 20.391-21.107 44.113-38.451 60.585-16.691 15.86-37.21 14.025-53.050-2.447-12.973-13.594-28.038-24.356-36.915-40.897-6.266-11.623-13.312-17.174-25.997-20.188-6.982-1.654-14.957-2.266-20.813-6.979-16.307-12.915-7.027-43.932 8.429-53.267v0z" />
<glyph unicode="&#xe90f;" glyph-name="phone" d="M348.686 284.581c164.053-164.050 316.072-182.016 360.702-183.677 53.931-1.963 108.971 42.069 132.779 87.165-37.973 44.544-87.421 79.104-141.568 116.565-31.954-31.915-71.339-91.221-123.773-69.973-29.825 11.992-103.467 45.909-167.809 110.296-64.384 64.34-98.261 137.982-110.336 167.764-21.248 52.523 38.229 91.989 70.187 123.947-37.461 55.040-71.424 105.771-115.883 141.824-45.739-23.893-90.027-78.507-88.021-133.163 1.664-44.629 19.627-196.651 183.723-360.748zM706.23 15.61c-61.44 2.264-235.56 26.328-417.918 208.64-182.315 182.358-206.336 356.438-208.64 417.921-3.413 93.696 68.352 184.704 151.253 220.245 9.983 4.31 20.916 5.952 31.724 4.763s21.123-5.168 29.929-11.547c68.608-50.048 115.925-125.867 156.587-185.259 8.459-12.35 12.334-27.269 10.955-42.174s-7.925-28.859-18.507-39.447l-57.856-57.899c13.44-29.653 40.789-80.768 85.589-125.568 44.8-44.798 95.915-72.15 125.608-85.588l57.816 57.856c10.627 10.604 24.639 17.139 39.595 18.472s29.901-2.623 42.24-11.179c60.587-41.984 131.755-88.616 183.637-155.051 6.895-8.869 11.281-19.428 12.703-30.578 1.417-11.145-0.188-22.465-4.642-32.779-35.709-83.331-126.077-154.283-220.075-150.83z" />
<glyph unicode="&#xe910;" glyph-name="facebook" horiz-adv-x="539" d="M492.162 375.156h-142.105v-424.421h-189.473v424.421h-155.369v174.318h155.369v134.527c0 151.579 90.947 236.842 229.263 236.842 66.316 0 136.421-13.263 136.421-13.263v-149.684h-77.684c-75.789 0-98.527-45.474-98.527-94.737v-113.684h168.632l-26.526-174.318z" />
<glyph unicode="&#xe911;" glyph-name="linkedIn" horiz-adv-x="964" d="M219.693-32.473h-196.941v633.179h196.941v-633.179zM120.164 685.412c-61.412 0-112.236 52.941-112.236 116.47 0 61.412 50.824 112.235 112.236 112.235 63.529 0 114.352-50.824 114.352-112.235 0-63.53-50.824-116.47-114.352-116.47zM954.519-32.473h-194.825v307.061c0 74.12-2.12 167.294-103.767 167.294-101.645 0-116.469-78.353-116.469-160.939v-313.416h-196.941v633.179h188.471v-86.824h2.118c27.529 48.706 91.059 101.647 186.351 101.647 199.060 0 237.176-131.294 237.176-300.704v-347.299h-2.114z" />
<glyph unicode="&#xe912;" glyph-name="white-knowmorearrow" horiz-adv-x="3860" d="M3822.694 406.226c23.072 23.071 23.072 60.477 0 83.547l-375.958 375.963c-23.072 23.071-60.479 23.071-83.551 0s-23.072-60.477 0-83.547l334.186-334.189-334.186-334.186c-23.072-23.072-23.072-60.479 0-83.551s60.479-23.072 83.551 0l375.958 375.963zM0 388.923h3780.923v118.154h-3780.923v-118.154z" />
<glyph unicode="&#xe913;" glyph-name="accordian-blur" d="M708.116 616.211l-18.944 18.944-183.266-183.235-183.296 183.235-18.944-18.944 202.24-202.21 202.21 202.21zM295.822 287.867h432.308v-36.111h-432.308v36.111z" />
<glyph unicode="&#xe914;" glyph-name="accordian-dark" d="M708.116 616.211l-18.944 18.944-183.266-183.235-183.296 183.235-18.944-18.944 202.24-202.21 202.21 202.21zM295.822 287.867h432.308v-36.111h-432.308v36.111z" />
</font>
</defs>
</svg>
